The Flash (2014) S05E07 1080p WebRip x265 EAC3 5.1 Kira [SEV]

  • Category TV
  • Type HEVC/x265
  • Language English
  • Total size 1.0 GB
  • Uploaded By 1337xKira
  • Downloads 20
  • Last checked 55 minutes ago
  • Date uploaded 6 hours ago
  • Seeders 19
  • Leechers 12
80%
November 28, 2018, 2:00 am

The Flash

While Nora grapples with unresolved anger over her father’s disappearance in the future, Barry and Team Flash must stop a powerful new meta, Weather Witch, from killing her own father, Weather Wizard.

Infohash : FEBA483316D4ED1C90A90EC1C5090E61AC18431D




Media Information

Code:

General
Format : Matroska
Format version : Version 4
File size : 1.03 GiB
Duration : 42 min 19 s
Overall bit rate : 3 499 kb/s
Movie name : The Flash : S05.E07 : O Come All Ye Thankful
Encoded date : UTC 2018-11-30 02:34:26
Writing application : mkvmerge v28.2.0 ('The Awakening') 64-bit
Writing library : libebml v1.3.6 + libmatroska v1.4.9

Video
ID : 1
Format : HEVC
Format/Info : High Efficiency Video Coding
Format profile : Main [email protected]@Main
Codec ID : V_MPEGH/ISO/HEVC
Duration : 42 min 19 s
Bit rate : 2 857 kb/s
Width : 1 920 pixels
Height : 1 080 pixels
Display aspect ratio : 16:9
Frame rate mode : Constant
Frame rate : 23.976 (24000/1001) FPS
Color space : YUV
Chroma subsampling : 4:2:0
Bit depth : 10 bits
Bits/(Pixel*Frame) : 0.057
Stream size : 865 MiB (82%)
Title : The Flash : S05.E07 : O Come All Ye Thankful
Writing library : x265 2.9+9-f74003e88622:[Windows][MSVC 1916][64 bit] 10bit
Encoding settings : cpuid=1111039 / frame-threads=2 / numa-pools=4 / wpp / no-pmode / no-pme / no-psnr / no-ssim / log-level=2 / input-csp=1 / input-res=1920x1080 / interlace=0 / total-frames=60885 / level-idc=0 / high-tier=1 / uhd-bd=0 / ref=4 / no-allow-non-conformance / no-repeat-headers / annexb / no-aud / no-hrd / info / hash=0 / no-temporal-layers / open-gop / min-keyint=23 / keyint=250 / gop-lookahead=0 / bframes=8 / b-adapt=2 / b-pyramid / bframe-bias=0 / rc-lookahead=100 / lookahead-slices=4 / scenecut=40 / radl=0 / no-intra-refresh / ctu=64 / min-cu-size=8 / no-rect / no-amp / max-tu-size=32 / tu-inter-depth=1 / tu-intra-depth=1 / limit-tu=0 / rdoq-level=2 / dynamic-rd=0.00 / no-ssim-rd / signhide / no-tskip / nr-intra=0 / nr-inter=0 / no-constrained-intra / no-strong-intra-smoothing / max-merge=3 / limit-refs=3 / limit-modes / me=3 / subme=5 / merange=57 / temporal-mvp / weightp / no-weightb / no-analyze-src-pics / deblock=1:1 / sao / no-sao-non-deblock / rd=4 / no-early-skip / rskip / no-fast-intra / no-tskip-fast / no-cu-lossless / no-b-intra / no-splitrd-skip / rdpenalty=0 / psy-rd=1.30 / psy-rdoq=1.00 / no-rd-refine / no-lossless / cbqpoffs=0 / crqpoffs=0 / rc=crf / crf=22.0 / qcomp=0.60 / qpstep=4 / stats-write=0 / stats-read=0 / ipratio=1.40 / pbratio=1.30 / aq-mode=3 / aq-strength=1.00 / cutree / zone-count=0 / no-strict-cbr / qg-size=32 / no-rc-grain / qpmax=69 / qpmin=0 / no-const-vbv / sar=0 / overscan=0 / videoformat=5 / range=0 / colorprim=2 / transfer=2 / colormatrix=2 / chromaloc=0 / display-window=0 / max-cll=0,0 / min-luma=0 / max-luma=1023 / log2-max-poc-lsb=8 / vui-timing-info / vui-hrd-info / slices=1 / no-opt-qp-pps / no-opt-ref-list-length-pps / no-multi-pass-opt-rps / scenecut-bias=0.05 / no-opt-cu-delta-qp / no-aq-motion / no-hdr / no-hdr-opt / no-dhdr10-opt / no-idr-recovery-sei / analysis-reuse-level=5 / scale-factor=0 / refine-intra=0 / refine-inter=0 / refine-mv=0 / no-limit-sao / ctu-info=0 / no-lowpass-dct / refine-mv-type=0 / copy-pic=1 / max-ausize-factor=1.0 / no-dynamic-refine / no-single-sei
Language : English
Default : Yes
Forced : No

Audio
ID : 2
Format : E-AC-3
Format/Info : Enhanced AC-3
Commercial name : Dolby Digital Plus
Codec ID : A_EAC3
Duration : 42 min 19 s
Bit rate mode : Constant
Bit rate : 640 kb/s
Channel(s) : 6 channels
Channel layout : L R C LFE Ls Rs
Sampling rate : 48.0 kHz
Frame rate : 31.250 FPS (1536 SPF)
Compression mode : Lossy
Stream size : 194 MiB (18%)
Title : English EAC3 DD+_5.1 @ 640 Kbps
Language : English
Service kind : Complete Main
Default : Yes
Forced : No

Text #1
ID : 3
Format : UTF-8
Codec ID : S_TEXT/UTF8
Codec ID/Info : UTF-8 Plain Text
Duration : 42 min 12 s
Bit rate : 85 b/s
Count of elements : 881
Stream size : 26.6 KiB (0%)
Title : English SDH SRT
Language : English
Default : Yes
Forced : No

Text #2
ID : 4
Format : UTF-8
Codec ID : S_TEXT/UTF8
Codec ID/Info : UTF-8 Plain Text
Duration : 42 min 12 s
Bit rate : 78 b/s
Count of elements : 776
Stream size : 24.2 KiB (0%)
Title : English SRT
Language : English
Default : No
Forced : No



Source Information

Code:


The.Flash.2014.S05E07.O.Come.All.Ye.Thankful.1080p.AMZN.WEB-DL.DDP5.1.H.264-NTb (2.63 GB)




We have no issue with individuals posting or re-uploading our torrents on a platform we aren't on. However, if this is something you'd like to do, please do so in a 'as-is' format. We ask that you do not create a new torrent, include all descriptions you see above including the SEV logo, tags, notes and screenshots. If you'd like to become a permanent poster on a website we don't post to, feel free to get in contact with a Sublime Encoded Video member.

We are recruiting/training new members for SEV. As you already know, we deliver quality, so you know the standard. If you're interested, feel free to contact any of the team members.




Files:

  • The Flash (2014) S05E07 1080p WebRip x265 EAC3 5.1 Kira [SEV].mkv (1.0 GB)

Comments

Code:

  • udp://tracker.leechers-paradise.org:6969/announce
  • udp://tracker.coppersurfer.tk:6969/announce
  • udp://tracker.opentrackr.org:1337/announce
  • udp://tracker.zer0day.to:1337/announce
  • udp://eddie4.nl:6969/announce
  • udp://shadowshq.yi.org:6969/announce
  • udp://tracker.justseed.it:1337/announce
  • http://0d.kebhana.mx:443/announce
  • http://open.acgnxtracker.com:443/announce
  • http://tr.fuuko.net:443/announce
  • http://bt.dl1234.com:80/announce
  • http://p4p.arenabg.com:1337/announce
  • http://tracker.opentrackr.org:1337/announce
  • http://explodie.org:6969/announce
  • http://torrentsmd.com:8080/announce
  • http://tracker.city9x.com:2710/announce
  • http://linetorrent.xyz:443/announce
  • udp://tracker.coppersurfer.tk:6969
  • udp://tracker.leechers-paradise.org:6969
  • udp://torrent.gresille.org:80/announce
  • udp://9.rarbg.me:2710/announce
  • udp://p4p.arenabg.com:1337
  • udp://tracker.internetwarriors.net:1337
SitemapChristmas Dresses HOT | El Bebe Jefazo 3D BluRay 3D 1080p | Popstar: Never Stop Never Stopping (2016)