Tumbbad (2018) Hindi 1080p WEB-Rip x264 AC3 5.1 - ESUB ~ Ranvijay

  • Category Movies
  • Type Bollywood
  • Language Hindi
  • Total size 3.5 GB
  • Uploaded By TheFighter
  • Downloads 402
  • Last checked 56 minutes ago
  • Date uploaded 5 hours ago
  • Seeders 19
  • Leechers 72

Tumbbad

Thriller

India, 19th century: on the outskirts of a decrepit village called Tumbbad lives Vinayak, the stubborn, conniving bastard son of the village lord, obsessed with a mythical ancestral treasure. He suspects the secret lies with his great-grandmother, a cursed witch. Confronting her finally puts him face to face with the guardian of the treasure, an evil fallen god. What starts with a few gold coins, quickly spirals into a reckless, perpetual yearning spanning decade. As Vinayak’s greed escalates, it all comes crashing together in an epic reckoning.

Infohash : 22A358D9E9D6CFF84F78C2ED3567C61D2553C626







Tumbbad (2018) Hindi 1080p WEB-Rip x264 AC3 5.1 - ESUB ~ Ranvijay

Buy RDP Online




Format : Matroska
Format version : Version 4 / Version 2
File size : 3.50 GiB
Duration : 1 h 44 min
Overall bit rate : 4 776 kb/s
Movie name : Tumbbad (2018) Hindi 1080p WEB-Rip x264 AC3 5.1 - ESUB ~ Ranvijay

Video
ID : 1
Format : AVC
Format/Info : Advanced Video Codec
Format profile : [email protected]
Format settings : CABAC / 5 Ref Frames
Format settings, CABAC : Yes
Format settings, RefFrames : 5 frames
Codec ID : V_MPEG4/ISO/AVC
Duration : 1 h 44 min
Bit rate : 4 390 kb/s
Width : 1 920 pixels
Height : 816 pixels
Display aspect ratio : 2.35:1
Frame rate mode : Constant
Frame rate : 24.000 FPS
Color space : YUV
Chroma subsampling : 4:2:0
Bit depth : 8 bits
Scan type : Progressive
Bits/(Pixel*Frame) : 0.117
Stream size : 3.22 GiB (92%)
Title : ~Ranvijay~

Audio
ID : 2
Format : AC-3
Format/Info : Audio Coding 3
Codec ID : A_AC3
Duration : 1 h 44 min
Bit rate mode : Constant
Bit rate : 384 kb/s
Channel(s) : 6 channels
Channel positions : Front: L C R, Side: L R, LFE
Sampling rate : 48.0 kHz
Frame rate : 31.250 FPS (1536 SPF)
Bit depth : 16 bits
Compression mode : Lossy
Stream size : 288 MiB (8%)
Title : ~Ranvijay~
Language : Hindi
Service kind : Complete Main
Default : Yes
Forced : Yes

Text
ID : 3
Format : UTF-8
Codec ID : S_TEXT/UTF8
Codec ID/Info : UTF-8 Plain Text
Duration : 1 h 35 min
Bit rate : 27 b/s
Count of elements : 711
Stream size : 19.5 KiB (0%)
Title : ~Ranvijay~
Language : English
Default : Yes
Forced : Yes

Menu
00:00:00.000 : en:Studio Logo
00:01:19.000 : en:Title Sequence
00:01:25.000 : en:Scene 3
00:13:36.000 : en:Scene 4
00:28:09.000 : en:Scene 5
00:40:13.000 : en:Scene 6
00:59:01.000 : en:Scene 7
01:04:26.000 : en:Scene 8
01:13:54.000 : en:Scene 9
01:33:52.000 : en:Scene 10
01:38:23.000 : en:End Credits











Don't walk as you are king, walk as you don't care who the king is....!!

[/b]


Files:

Tumbbad (2018) Hindi 1080p WEB-Rip x264 AC3 5.1 - ESUB ~ Ranvijay
  • SpecialRDP - Premium & Affordable Web Hosting Solution.url (0.0 KB)
  • Sample - Tumbbad (2018) Hindi 1080p WEB-Rip x264 AC3 5.1 - ESUB ~ Ranvijay.mkv (20.5 MB)
  • Tumbbad (2018) Hindi 1080p WEB-Rip x264 AC3 5.1 - ESUB ~ Ranvijay.mkv (3.5 GB)

There are currently no comments. Feel free to leave one :)

Code:

  • udp://tracker.pirateparty.gr:6969/announce
SitemapVideoMeld 1 61 | ファンタジーライフ オンライン | Manteaux en cuir véritable