Lakshmi Hot Adult Hindi Movies 720p DVDRip x264 5.1 with Sample ☻...

  • Category Movies
  • Type DVD
  • Language Hindi
  • Total size 706.3 MB
  • Uploaded By nehalpuja
  • Downloads 116
  • Last checked 1 hour ago
  • Date uploaded 2 hours ago
  • Seeders 0
  • Leechers 26

Infohash : 6C8C4A44F3EAABFDE5116924B2AAFFC67147D672

18+ Lakshmi Hot Adult Hindi Movies 720p DVDRip x264 5.1 with Sample ☻rDX☻
===============================================================================================

SCREEN SHOTS:



or

http://iphonehosting.eu/2018/11/b/car/1.html

File size                                : 698 MiB
Duration                                 : 1 h 52 min
Overall bit rate                         : 863 kb/s
Movie name                               : 18+ Lakshmi Hot Adult Hindi Movies 720p DVDRip x264 5.1 ☻rDX☻

Video
ID                                       : 2
Format                                   : AVC
Format/Info                              : Advanced Video Codec
Format profile                           : [email protected]
Format settings, CABAC                   : Yes
Format settings, ReFrames                : 3 frames
Codec ID                                 : V_MPEG4/ISO/AVC
Duration                                 : 1 h 52 min
Bit rate                                 : 462 kb/s
Width                                    : 1 280 pixels
Height                                   : 720 pixels
Display aspect ratio                     : 16:9
Frame rate mode                          : Constant
Frame rate                               : 24.000 FPS
Color space                              : YUV
Chroma subsampling                       : 4:2:0
Bit depth                                : 8 bits
Scan type                                : Progressive
Bits/(Pixel*Frame)                       : 0.021
Stream size                              : 374 MiB (54%)
Title                                    : ☻rDX☻
Default                                  : Yes
Forced                                   : No
Color range                              : Limited
Color primaries                          : BT.709
Transfer characteristics                 : BT.709
Matrix coefficients                      : BT.709

Audio
ID                                       : 1
Format                                   : AC-3
Format/Info                              : Audio Coding 3
Mode extension                           : CM (complete main)
Format settings, Endianness              : Big
Codec ID                                 : A_AC3
Duration                                 : 1 h 52 min
Bit rate mode                            : Constant
Bit rate                                 : 384 kb/s
Channel(s)                               : 6 channels
Channel positions                        : Front: L C R, Side: L R, LFE
Sampling rate                            : 44.1 kHz
Frame rate                               : 28.711 FPS (1536 spf)
Bit depth                                : 16 bits
Compression mode                         : Lossy
Stream size                              : 310 MiB (44%)
Title                                    : ☻rDX☻
Default                                  : Yes
Forced                                   : No

http://www.imdb.com/title/tt2976176

Files:

18+ Lakshmi Hot Adult Hindi Movies 720p DVDRip x264 5.1 with Sample ☻rDX☻
  • Sample ~ 18+ Lakshmi Hot Adult Hindi Movies 720p DVDRip x264 5.1 ☻rDX☻.mkv (8.5 MB)
  • 18+ Lakshmi Hot Adult Hindi Movies 720p DVDRip x264 5.1 ☻rDX☻.mkv (697.7 MB)

There are currently no comments. Feel free to leave one :)

Code:

  • udp://tracker.coppersurfer.tk:6969/announce
  • udp://tracker.leechers-paradise.org:6969/announce
  • udp://tracker.pirateparty.gr:6969/announce
  • udp://eddie4.nl:6969/announce
  • udp://tracker.zer0day.to:1337/announce
  • udp://9.rarbg.me:2710/announce
  • udp://9.rarbg.to:2710/announce
  • udp://public.popcorn-tracker.org:6969/announce
  • udp://p4p.arenabg.ch:1337/announce
  • udp://tracker.vanitycore.co:6969/announce
  • udp://ipv4.tracker.harry.lu:80/announce
  • udp://tracker.opentrackr.org:1337/announce
  • udp://p4p.arenabg.com:1337/announce
  • udp://shadowshq.yi.org:6969/announce
SitemapBaywatch (2017) | Lana Rain - my videos from ManyVids | Apple Final Cut Pro X 10 2 2 Mac Os X