Birth of the Dragon (2016) UNCUT 720p Blu-Ray x264 Esub [Dual Aud...

  • Category Movies
  • Type Dubs/Dual Audio
  • Language Hindi
  • Total size 1.2 GB
  • Uploaded By DESIRE123
  • Downloads 162
  • Last checked 14 minutes ago
  • Date uploaded 1 hour ago
  • Seeders 2
  • Leechers 111

Birth of the Dragon

ActionDrama

Set against the backdrop of San Francisco’s Chinatown, this cross-cultural biopic chronicles Bruce Lee’s emergence as a martial-arts superstar after his legendary secret showdown with fellow martial artist Wong Jack Man.

Infohash : B2EBCF648B60394873CF7BD9F204D4CCDE9B5A44

Birth of the Dragon (2016) UNCUT 720p Blu-Ray x264 Esub [Dual Audio] [Hindi DTH 2.0 - English 2.0] - 1.2 GB


EXUSIVE UPLOAD BY DesireMoVies.Men


Birth of the Dragon


POSTER




INFO


General
Format : Matroska
Format version : Version 4
File size : 1.18 GiB
Duration : 1 h 35 min
Overall bit rate : 1 764 kb/s

Video
ID : 1
Format : AVC
Format/Info : Advanced Video Codec
Format profile : [email protected]
Format settings : CABAC / 12 Ref Frames
Format settings, CABAC : Yes
Format settings, ReFrames : 12 frames
Codec ID : V_MPEG4/ISO/AVC
Duration : 1 h 35 min
Bit rate : 1 400 kb/s
Width : 1 280 pixels
Height : 534 pixels
Display aspect ratio : 2.40:1
Original display aspect ratio : 2.40:1
Frame rate mode : Constant
Frame rate : 23.976 (24000/1001) FPS
Color space : YUV
Chroma subsampling : 4:2:0
Bit depth : 8 bits
Default : Yes
Forced : No

Audio #1
ID : 2
Format : AC-3
Format/Info : Audio Coding 3
Commercial name : Dolby Digital
Codec ID : A_AC3
Duration : 1 h 35 min
Bit rate mode : Constant
Bit rate : 224 kb/s
Channel(s) : 2 channels
Channel layout : L R
Sampling rate : 48.0 kHz
Frame rate : 31.250 FPS (1536 SPF)
Bit depth : 16 bits
Compression mode : Lossy
Delay relative to video : -83 ms
Stream size : 153 MiB (13%)
Title : Hindi DTH 2.0
Language : Hindi
Service kind : Complete Main
Default : Yes
Forced : Yes

Audio #2
ID : 3
Format : AAC LC
Format/Info : Advanced Audio Codec Low Complexity
Codec ID : A_AAC-2
Duration : 1 h 35 min
Bit rate : 128 kb/s
Channel(s) : 2 channels
Channel layout : L R
Sampling rate : 48.0 kHz
Frame rate : 46.875 FPS (1024 SPF)
Compression mode : Lossy
Delay relative to video : -21 ms
Stream size : 87.7 MiB (7%)
Title : Stereo
Language : English
Default : No
Forced : No

Text
ID : 4
Format : PGS
Muxing mode : zlib
Codec ID : S_HDMV/PGS
Codec ID/Info : Picture based subtitle format used on BDs/HD-DVDs
Duration : 1 h 31 min
Bit rate : 35.4 kb/s
Count of elements : 2522
Stream size : 23.2 MiB (2%)
Language : English
Default : No
Forced : No


SCREENSHOT



Keep Visit DesireMoVies.trade For More Exusive MoVies


Files:

DesireMovies.Men Birth of the Dragon (2016) UNCUT 720p Blu-Ray x264 Esub [Dual Audio]
  • 1SAMPLE.mkv (12.6 MB)
  • Birth of the Dragon (2016) UNCUT 720p Blu-Ray x264 Esub [Dual Audio] DesireMovies.Men.mkv (1.2 GB)

There are currently no comments. Feel free to leave one :)

Code:

  • udp://tracker.coppersurfer.tk:6969/announce
  • udp://tracker.leechers-paradise.org:6969/announce
  • udp://tracker.pirateparty.gr:6969/announce
  • udp://eddie4.nl:6969/announce
  • udp://tracker.zer0day.to:1337/announce
  • udp://9.rarbg.me:2710/announce
  • udp://9.rarbg.to:2710/announce
  • udp://public.popcorn-tracker.org:6969/announce
  • udp://p4p.arenabg.ch:1337/announce
  • udp://tracker.opentrackr.org:1337/announce
  • http://ipv4.tracker.harry.lu:80/announce
  • http://open.kickasstracker.com/announce
  • http://tracker.devil-torrents.pl/announce
  • http://t.nyaatracker.com:80/announce
  • http://retracker.mgts.by:80/announce
  • udp://tracker.internetwarriors.net:1337/announce
  • udp://shadowshq.yi.org:6969/announce
  • udp://explodie.org:6969/announce
  • udp://tracker.tiny-vps.com:6969/announce
  • udp://inferno.demonoid.pw:3391/announce
  • udp://peerfect.org:6969/announce
  • udp://tracker.vanitycore.co:6969/announce
  • udp://open.stealth.si:80/announ
  • udp://p4p.arenabg.com:1337/announce
  • udp://tracker.zer0day.to:1337/announce
  • udp://tracker.coppersurfer.tk:80/announce
  • udp://coppersurfer.tk:6969/announce
  • udp://mgtracker.org:6969/announce
SitemapJamie Lee Curtis | film rock n roll | Bleak House