Tumbbad (2018) Hindi 720p HDRip x264 AC3 5.1 ESub-Sun George

  • Category Movies
  • Type Bollywood
  • Language Hindi
  • Total size 1.5 GB
  • Uploaded By Sungeorge
  • Downloads 86
  • Last checked 53 minutes ago
  • Date uploaded 1 hour ago
  • Seeders 2
  • Leechers 52

Tumbbad

Thriller

India, 19th century: on the outskirts of a decrepit village called Tumbbad lives Vinayak, the stubborn, conniving bastard son of the village lord, obsessed with a mythical ancestral treasure. He suspects the secret lies with his great-grandmother, a cursed witch. Confronting her finally puts him face to face with the guardian of the treasure, an evil fallen god. What starts with a few gold coins, quickly spirals into a reckless, perpetual yearning spanning decade. As Vinayak’s greed escalates, it all comes crashing together in an epic reckoning.

Infohash : D9C78EBEFDEFACC08FC122898BEA4C2DAE1C6FCE

Tumbbad (2018) Hindi 720p HDRip x264 AC3 5.1 ESub-Sun George



http://www.imdb.com/title/tt8239946/








===================================================================


General
Format : Matroska
Format version : Version 4 / Version 2
File size : 1.46 GiB
Duration : 1 h 44 min
Overall bit rate : 1 998 kb/s
Movie name : Tumbbad (2018) Hindi 720p HDRip x264 AC3 5.1 ESub-Sun George


===================================================================


Video
ID : 1
Format : AVC
Format/Info : Advanced Video Codec
Format profile : [email protected]
Format settings : CABAC / 5 Ref Frames
Format settings, CABAC : Yes
Format settings, RefFrames : 5 frames
Codec ID : V_MPEG4/ISO/AVC
Duration : 1 h 44 min
Bit rate : 1 850 kb/s
Width : 1 280 pixels
Height : 544 pixels
Display aspect ratio : 2.35:1
Frame rate mode : Constant
Frame rate : 25.000 FPS
Color space : YUV
Chroma subsampling : 4:2:0
Bit depth : 8 bits
Scan type : Progressive
Bits/(Pixel*Frame) : 0.106
Stream size : 1.32 GiB (90%)
Title : Sun George


===================================================================


Audio
ID : 2
Format : AC-3
Format/Info : Audio Coding 3
Codec ID : A_AC3
Duration : 1 h 44 min
Bit rate mode : Constant
Bit rate : 192 kb/s
Channel(s) : 6 channels
Channel positions : Front: L C R, Side: L R, LFE
Sampling rate : 48.0 kHz
Frame rate : 31.250 FPS (1536 SPF)
Bit depth : 16 bits
Compression mode : Lossy
Stream size : 144 MiB (10%)
Title : Sun George
Language : Hindi
Service kind : Complete Main
Default : Yes
Forced : No

Text
ID : 3
Format : UTF-8
Codec ID : S_TEXT/UTF8
Codec ID/Info : UTF-8 Plain Text
Duration : 1 h 35 min
Bit rate : 27 b/s
Count of elements : 711
Stream size : 19.5 KiB (0%)
Title : Sun George
Language : English
Default : Yes
Forced : Yes













Files:

Tumbbad (2018) Hindi 720p HDRip x264 AC3 5.1 ESub-Sun George
  • Tumbbad (2018) Hindi 720p HDRip x264 AC3 5.1 ESub-Sun George.mkv (1.5 GB)
  • Sample Tumbbad (2018) Hindi 720p HDRip x264 AC3 5.1 ESub-Sun George.mkv (31.0 MB)
  • INFO.NFO (0.1 KB)

Comments

Code:

  • udp://tracker.pirateparty.gr:6969/announce
  • udp://tracker.tiny-vps.com:6969/announce
  • udp://open.stealth.si:80/announce
  • udp://tracker.opentrackr.org:1337/announce
  • udp://tracker.internetwarriors.net:1337/announce
  • udp://9.rarbg.to:2710/announce
  • udp://tracker1.itzmx.com:8080/announce
  • udp://9.rarbg.me:2740/announce
  • udp://thetracker.org:80/announce
  • udp://tracker.coppersurfer.tk:6969/announce
  • http://tracker.fastdownload.xyz:443/announce
  • udp://torrentclub.tech:6969/announce
  • udp://open.demonii.si:1337/announce
  • http://seeders-paradise.org:443/announce
  • http://share.camoe.cn:8080/announce
Sitemap12Pcs Pinceaux De Maquillage Set Poudre Fard À Paupières Eye-liner Yeux Brosse | 26.11.2018 | Rick and Morty