Eight Below (2006) (1080p BluRay x265 HEVC 10bit AAC 5.1 Natty) [...

  • Category Movies
  • Type HEVC/x265
  • Language English
  • Total size 3.0 GB
  • Uploaded By QxR
  • Downloads 276
  • Last checked 8 hours ago
  • Date uploaded 1 day ago
  • Seeders 38
  • Leechers 27

Eight Below

AdventureDramaFamily

In the Antarctic, after an expedition with Dr. Davis McClaren, the sled dog trainer Jerry Shepherd has to leave the polar base with his colleagues due to the proximity of a heavy snow storm. He ties his dogs to be rescued after, but the mission is called-off and the dogs are left alone at their own fortune. For six months, Jerry tries to find a sponsor for a rescue mission.

Infohash : 92E6CE4C888C09BB3E8E46E86B8708E8E4834BA8



http://www.imdb.com/title/tt0397313/





Media Information

Code:

General
Format : Matroska
Format version : Version 4 / Version 2
File size : 2.97 GiB
Duration : 2 h 1 min
Overall bit rate : 3 497 kb/s
Movie name : Eight Below 2006 (1080p BluRay x265 clearFoster)
Encoded date : UTC 2018-12-02 13:10:34
Writing application : mkvmerge v29.0.0 ('Like It Or Not') 64-bit
Writing library : libebml v1.3.6 + libmatroska v1.4.9
Cover : Yes
Attachments : cover.jpeg
Writing frontend : cFstr

Video
ID : 1
Format : HEVC
Format/Info : High Efficiency Video Coding
Format profile : Main [email protected]@High
Codec ID : V_MPEGH/ISO/HEVC
Duration : 2 h 0 min
Bit rate : 2 819 kb/s
Width : 1 920 pixels
Height : 800 pixels
Display aspect ratio : 2.40:1
Frame rate mode : Constant
Frame rate : 23.976 (24000/1001) FPS
Color space : YUV
Chroma subsampling : 4:2:0
Bit depth : 10 bits
Bits/(Pixel*Frame) : 0.077
Stream size : 2.37 GiB (80%)
Writing library : x265 2.7+1-2aa737a99f51:[Windows][MSVC 1900][64 bit] 10bit
Encoding settings : cpuid=1105919 / frame-threads=2 / numa-pools=6 / wpp / no-pmode / no-pme / no-psnr / no-ssim / log-level=2 / input-csp=1 / input-res=1920x800 / interlace=0 / total-frames=173123 / level-idc=41 / high-tier=1 / uhd-bd=0 / ref=4 / no-allow-non-conformance / no-repeat-headers / annexb / no-aud / no-hrd / info / hash=0 / no-temporal-layers / open-gop / min-keyint=23 / keyint=250 / gop-lookahead=0 / bframes=8 / b-adapt=2 / b-pyramid / bframe-bias=0 / rc-lookahead=60 / lookahead-slices=5 / scenecut=40 / radl=0 / no-intra-refresh / ctu=64 / min-cu-size=8 / rect / no-amp / max-tu-size=32 / tu-inter-depth=1 / tu-intra-depth=1 / limit-tu=0 / rdoq-level=2 / dynamic-rd=0.00 / no-ssim-rd / signhide / no-tskip / nr-intra=0 / nr-inter=0 / no-constrained-intra / no-strong-intra-smoothing / max-merge=3 / limit-refs=3 / limit-modes / me=3 / subme=3 / merange=57 / temporal-mvp / weightp / no-weightb / no-analyze-src-pics / deblock=-2:-1 / no-sao / no-sao-non-deblock / rd=4 / no-early-skip / rskip / no-fast-intra / no-tskip-fast / no-cu-lossless / no-b-intra / no-splitrd-skip / rdpenalty=0 / psy-rd=2.00 / psy-rdoq=0.00 / no-rd-refine / no-lossless / cbqpoffs=0 / crqpoffs=0 / rc=crf / crf=21.0 / qcomp=0.70 / qpstep=4 / stats-write=0 / stats-read=0 / vbv-maxrate=50000 / vbv-bufsize=50000 / vbv-init=0.9 / crf-max=0.0 / crf-min=0.0 / ipratio=1.40 / pbratio=1.30 / aq-mode=3 / aq-strength=0.90 / cutree / zone-count=0 / no-strict-cbr / qg-size=32 / no-rc-grain / qpmax=69 / qpmin=0 / no-const-vbv / sar=0 / overscan=0 / videoformat=5 / range=0 / colorprim=1 / transfer=1 / colormatrix=1 / chromaloc=0 / display-window=0 / max-cll=0,0 / min-luma=0 / max-luma=1023 / log2-max-poc-lsb=8 / vui-timing-info / vui-hrd-info / slices=1 / no-opt-qp-pps / no-opt-ref-list-length-pps / multi-pass-opt-rps / scenecut-bias=0.05 / no-opt-cu-delta-qp / aq-motion / no-hdr / no-hdr-opt / no-dhdr10-opt / analysis-reuse-level=10 / scale-factor=0 / refine-intra=0 / refine-inter=0 / refine-mv=0 / no-limit-sao / ctu-info=0 / no-lowpass-dct / refine-mv-type=0 / copy-pic=1
Default : Yes
Forced : No
Color range : Limited
Color primaries : BT.709
Transfer characteristics : BT.709
Matrix coefficients : BT.709

Audio
ID : 2
Format : AAC
Format/Info : Advanced Audio Codec
Format profile : LC
Codec ID : A_AAC
Duration : 2 h 1 min
Bit rate : 464 kb/s
Channel(s) : 6 channels
Channel positions : Front: L C R, Side: L R, LFE
Sampling rate : 48.0 kHz
Frame rate : 46.875 FPS (1024 spf)
Compression mode : Lossy
Delay relative to video : 20 ms
Stream size : 403 MiB (13%)
Language : English
Default : Yes
Forced : No

Subtitle #1
ID : 3
Format : PGS
Muxing mode : zlib
Codec ID : S_HDMV/PGS
Codec ID/Info : Picture based subtitle format used on BDs/HD-DVDs
Duration : 1 h 51 min
Bit rate : 17.7 kb/s
Count of elements : 1894
Stream size : 14.1 MiB (0%)
Language : English
Default : Yes
Forced : No

Subtitle #2
ID : 4
Format : PGS
Muxing mode : zlib
Codec ID : S_HDMV/PGS
Codec ID/Info : Picture based subtitle format used on BDs/HD-DVDs
Duration : 1 h 54 min
Bit rate : 36.8 kb/s
Count of elements : 1968
Stream size : 30.1 MiB (1%)
Language : Polish
Default : No
Forced : No

Subtitle #3
ID : 5
Format : PGS
Muxing mode : zlib
Codec ID : S_HDMV/PGS
Codec ID/Info : Picture based subtitle format used on BDs/HD-DVDs
Duration : 1 h 55 min
Bit rate : 37.4 kb/s
Count of elements : 1968
Stream size : 30.9 MiB (1%)
Language : Czech
Default : No
Forced : No

Subtitle #4
ID : 6
Format : PGS
Muxing mode : zlib
Codec ID : S_HDMV/PGS
Codec ID/Info : Picture based subtitle format used on BDs/HD-DVDs
Duration : 1 h 52 min
Bit rate : 38.0 kb/s
Count of elements : 1930
Stream size : 30.6 MiB (1%)
Language : Hungarian
Default : No
Forced : No

Subtitle #5
ID : 7
Format : PGS
Muxing mode : zlib
Codec ID : S_HDMV/PGS
Codec ID/Info : Picture based subtitle format used on BDs/HD-DVDs
Duration : 1 h 52 min
Bit rate : 39.5 kb/s
Count of elements : 1962
Stream size : 31.7 MiB (1%)
Language : Slovak
Default : No
Forced : No

Subtitle #6
ID : 8
Format : PGS
Muxing mode : zlib
Codec ID : S_HDMV/PGS
Codec ID/Info : Picture based subtitle format used on BDs/HD-DVDs
Duration : 1 h 52 min
Bit rate : 25.7 kb/s
Count of elements : 1748
Stream size : 20.8 MiB (1%)
Language : Hebrew
Default : No
Forced : No

Subtitle #7
ID : 9
Format : PGS
Muxing mode : zlib
Codec ID : S_HDMV/PGS
Codec ID/Info : Picture based subtitle format used on BDs/HD-DVDs
Duration : 1 h 54 min
Bit rate : 40.6 kb/s
Count of elements : 1978
Stream size : 33.2 MiB (1%)
Language : Greek
Default : No
Forced : No

Subtitle #8
ID : 10
Format : PGS
Muxing mode : zlib
Codec ID : S_HDMV/PGS
Codec ID/Info : Picture based subtitle format used on BDs/HD-DVDs
Duration : 1 h 54 min
Bit rate : 37.4 kb/s
Count of elements : 1982
Stream size : 30.6 MiB (1%)
Language : Bulgarian
Default : No
Forced : No

Subtitle #9
ID : 11
Format : PGS
Muxing mode : zlib
Codec ID : S_HDMV/PGS
Codec ID/Info : Picture based subtitle format used on BDs/HD-DVDs
Duration : 1 h 54 min
Bit rate : 36.5 kb/s
Count of elements : 1960
Stream size : 29.9 MiB (1%)
Language : Romanian
Default : No
Forced : No

Subtitle #10
ID : 12
Format : PGS
Muxing mode : zlib
Codec ID : S_HDMV/PGS
Codec ID/Info : Picture based subtitle format used on BDs/HD-DVDs
Duration : 1 h 52 min
Bit rate : 41.2 kb/s
Count of elements : 1962
Stream size : 33.1 MiB (1%)
Language : Turkish
Default : No
Forced : No

Subtitle #11
ID : 13
Format : PGS
Muxing mode : zlib
Codec ID : S_HDMV/PGS
Codec ID/Info : Picture based subtitle format used on BDs/HD-DVDs
Duration : 1 h 54 min
Bit rate : 40.0 kb/s
Count of elements : 1984
Stream size : 32.7 MiB (1%)
Language : Russian
Default : No
Forced : No

Subtitle #12
ID : 14
Format : PGS
Muxing mode : zlib
Codec ID : S_HDMV/PGS
Codec ID/Info : Picture based subtitle format used on BDs/HD-DVDs
Duration : 1 h 52 min
Bit rate : 41.8 kb/s
Count of elements : 1980
Stream size : 33.5 MiB (1%)
Language : Serbian
Default : No
Forced : No

Subtitle #13
ID : 15
Format : PGS
Muxing mode : zlib
Codec ID : S_HDMV/PGS
Codec ID/Info : Picture based subtitle format used on BDs/HD-DVDs
Duration : 1 h 54 min
Bit rate : 34.4 kb/s
Count of elements : 1966
Stream size : 28.1 MiB (1%)
Language : Croatian
Default : No
Forced : No

Subtitle #14
ID : 16
Format : PGS
Muxing mode : zlib
Codec ID : S_HDMV/PGS
Codec ID/Info : Picture based subtitle format used on BDs/HD-DVDs
Duration : 1 h 54 min
Bit rate : 34.6 kb/s
Count of elements : 1968
Stream size : 28.3 MiB (1%)
Language : Slovenian
Default : No
Forced : No

Subtitle #15
ID : 17
Format : PGS
Muxing mode : zlib
Codec ID : S_HDMV/PGS
Codec ID/Info : Picture based subtitle format used on BDs/HD-DVDs
Duration : 1 h 54 min
Bit rate : 26.3 kb/s
Count of elements : 1978
Stream size : 21.5 MiB (1%)
Language : Arabic
Default : No
Forced : No

Menu
00:00:00.000 : en:Opening Credits
00:04:23.930 : en:Bottom of the Planet
00:14:59.440 : en:The Expedition
00:22:55.791 : en:Melbourne
00:30:11.768 : en:Impending Storm
00:39:54.517 : en:Evacuation
00:54:30.726 : en:On Your Own
01:01:39.905 : en:Deep Winter
01:07:02.852 : en:Can't Let Go
01:19:24.093 : en:Teamwork
01:28:36.770 : en:Hope
01:37:59.957 : en:Return to the Base
01:43:04.595 : en:One More
01:52:55.560 : en:Ending Credits

Source Information

Code:

Release:
BD50


Note From QxR:

Quote:

Whilst we are happy for our releases to be re-posted on a platform we aren't on, please do so in an 'as-is' format. We ask that you do not create a new torrent, include all descriptions you see above including the QxR logo, tags, notes and screenshots. If you'd like to become a permanent poster on a website we don't post to, feel free to get in contact with a QxR member.


Files:

Eight Below (2006) (1080p BluRay x265 HEVC 10bit AAC 5.1 Natty)
  • Eight Below (2006) (1080p BluRay x265 Natty).mkv (3.0 GB)
  • wall.png (1.4 MB)

There are currently no comments. Feel free to leave one :)

Code:

  • udp://tracker.coppersurfer.tk:6969/announce
  • udp://tracker.opentrackr.org:1337/announce
  • udp://tracker.zer0day.to:1337/announce
  • udp://tracker.torrent.eu.org:451/announce
  • udp://tracker.leechers-paradise.org:6969/announce
  • udp://p4p.arenabg.com:1337/announce
  • udp://tracker.internetwarriors.net:1337/announce
SitemapDeliverance Mary Fields, First African American Woman Star Route Mail Carrier in the United States: A Montana History | ALBANIA 2018 EUROPA CEPT.BRIDGES.Block . MNH | Auditions No. 1