Kiraak Party (2018) 720p Hindi Dubbed WEBHD x264 AAC 1.3GB [MovCr...

  • Category Movies
  • Type Dubs/Dual Audio
  • Language Hindi
  • Total size 1.3 GB
  • Uploaded By ictv
  • Downloads 294
  • Last checked 43 minutes ago
  • Date uploaded 3 hours ago
  • Seeders 29
  • Leechers 125

Infohash : 07B0A31E9313AEA2962FDCA50B4C1B5370CE3C90

Our Site www.movcr.cc


Kiraak Party (2018) 720p Hindi Dubbed WEBHD x264 AAC 1.3GB [MovCr]



http://www.imdb.com/title/tt7756082/?ref_=nv_sr_1




General
Unique ID : 271693867103867882256846203863619628514 (0xCC6655DF2516547BC60BEEF0FCDC6DE2)
Complete name : www.MovCr.cc - Kiraak Party (2018) 720p Hindi Dubbed WEBHD x264 AAC 1.3GB [MovCr].mkv
Format : Matroska
Format version : Version 4 / Version 2
File size : 1.25 GiB
Duration : 2 h 25 min
Overall bit rate : 1 231 kb/s
Movie name : www.MovCr.cc
Encoded date : UTC 2018-12-05 03:40:47
Writing application : mkvmerge v26.0.0 ('In The Game') 64-bit
Writing library : libebml v1.3.6 + libmatroska v1.4.9

Video
ID : 1
Format : AVC
Format/Info : Advanced Video Codec
Format profile : [email protected]
Format settings : CABAC / 3 Ref Frames
Format settings, CABAC : Yes
Format settings, RefFrames : 3 frames
Codec ID : V_MPEG4/ISO/AVC
Duration : 2 h 25 min
Bit rate : 1 101 kb/s
Width : 1 280 pixels
Height : 720 pixels
Display aspect ratio : 16:9
Frame rate mode : Constant
Frame rate : 24.000 FPS
Color space : YUV
Chroma subsampling : 4:2:0
Bit depth : 8 bits
Scan type : Progressive
Bits/(Pixel*Frame) : 0.050
Stream size : 1.12 GiB (89%)
Title : www.MovCr.cc
Default : Yes
Forced : No
Color range : Limited
Color primaries : BT.709
Transfer characteristics : BT.709
Matrix coefficients : BT.709

Audio
ID : 2
Format : AAC
Format/Info : Advanced Audio Codec
Format profile : LC
Codec ID : A_AAC-2
Duration : 2 h 25 min
Bit rate : 128 kb/s
Channel(s) : 2 channels
Channel positions : Front: L R
Sampling rate : 44.1 kHz
Frame rate : 43.066 FPS (1024 SPF)
Compression mode : Lossy
Stream size : 133 MiB (10%)
Title : www.MovCr.cc
Language : Hindi
Default : Yes
Forced : No

Text
ID : 3
Format : UTF-8
Codec ID : S_TEXT/UTF8
Codec ID/Info : UTF-8 Plain Text
Duration : 2 h 24 min
Bit rate : 63 b/s
Count of elements : 2079
Stream size : 67.3 KiB (0%)
Title : www.MovCr.cc
Language : English
Default : Yes
Forced : No










Files:

  • www.MovCr.cc - Kiraak Party (2018) 720p Hindi Dubbed WEBHD x264 AAC 1.3GB [MovCr].mkv (1.3 GB)

There are currently no comments. Feel free to leave one :)

Code:

  • udp://tracker.coppersurfer.tk:6969/announce
  • udp://tracker.opentrackr.org:1337/announce
  • udp://tracker.leechers-paradise.org:6969/announce
  • udp://9.rarbg.to:2800/announce
  • udp://9.rarbg.to:2800/announce
  • udp://eddie4.nl:6969/announce
  • udp://9.rarbg.to:2800/announce
  • udp://9.rarbg.to:2800/announce
  • udp://tracker.doko.moe:6969/announce
  • udp://tracker.doko.moe:6969/announce
  • udp://thetracker.org:80/announce
  • udp://thetracker.org:80/announce
  • udp://bt.xxx-tracker.com:2710/announce
  • udp://bt.xxx-tracker.com:2710/announce
  • udp://tracker.vanitycore.co:6969/announce
  • udp://tracker.vanitycore.co:6969/announce
  • udp://tracker.tiny-vps.com:6969/announce
  • udp://tracker.leechers-paradise.org:6969/announce
  • udp://tracker.tiny-vps.com:6969/announce
  • udp://tracker.opentrackr.org:1337/announce
  • udp://tracker.coppersurfer.tk:6969/announce
  • udp://open.stealth.si:80/announce
  • udp://tracker.leechers-paradise.org:6969/announce
  • udp://inferno.demonoid.pw:3418/announce
  • udp://tracker.opentrackr.org:1337/announce
  • udp://retracker.lanta-net.ru:2710/announce
  • udp://peerfect.org:6969/announce
  • udp://tracker.coppersurfer.tk:6969/announce
  • udp://tracker.swateam.org.uk:2710/announce
  • udp://open.stealth.si:80/announce
  • udp://inferno.demonoid.pw:3418/announce
  • udp://retracker.lanta-net.ru:2710/announce
  • udp://peerfect.org:6969/announce
  • udp://tracker.swateam.org.uk:2710/announce
Sitemapwww.Torrenting.com - The.Big.Bang.Theory.S11E02.480p.x264-mSD | The Lying Game | Essay Conclusion